ورود به حساب ثبت نام جدید فراموشی کلمه عبور
برای ورود به حساب کاربری خود، نام کاربری و کلمه عبورتان را در زیر وارد کرده و روی «ورود به سایت» کلیک کنید.





اگر فرم ثبت نام برای شما نمایش داده نمی‌شود، اینجا را کلیک کنید.









اگر فرم بازیابی کلمه عبور برای شما نمایش داده نمی‌شود، اینجا را کلیک کنید.





تبلیغ شما تبلیغ شما IWE تبلیغ شما
نمایش نتایج: از 1 به 1 از 1
  1. #1
    کاربر طلایی
    مدیر کل سایت

    دانلود یو اف سی 101 | UFC 101: Declaration دانلود یو اف سی 101 | UFC 101: Declaration دانلود یو اف سی 101 | UFC 101: Declaration دانلود یو اف سی 101 | UFC 101: Declaration دانلود یو اف سی 101 | UFC 101: Declaration
    مديريت کـــــــــل سايت
    تاریخ عضویت
    2013/06/02
    محل سکونت
    Magic City
    نوشته ها
    2,321
    20,270
    نوشته های وبلاگ
    88
    مبارز مورد علاقه AndersonSilva_Headshot

    دانلود یو اف سی 101 | UFC 101: Declaration




    UFC 101: Declaration

    دانلود یو اف سی 101 | UFC 101: Declaration


    کد HTML:
    UFC 101: Declaration
    Data: 09 Agosto 2009
    Localit?: Wachovia Center
    Citt?:     Philadelphia, Pennsylvania
    
    Main card
    
    * Lightweight bout: Josh Neer vs. Kurt Pellegrino
    
    
    * Middleweight bout: Kendall Grove vs. Ricardo Almeida
    
    
    * Welterweight bout: Amir Sadollah vs. Johny Hendricks
    
    
    * Welterweight bout: Shane Nelson vs. Aaron Riley
    
    
    * Light Heavyweight bout: Anderson Silva vs. Forrest Griffin
    
    
    * Lightweight Championship bout: BJ Penn ? vs. Kenny Florian

    اطلاعات ویدیو
    Spoiler: show
    کد HTML:
    General
    Complete name : C:\\UFC.101.Declaration.DSR.XviD-XWT.avi
    Format : AVI
    Format/Info : Audio Video Interleave
    File size : 1.33 GiB
    Duration : 2h 43mn
    Overall bit rate : 1 164 Kbps
    
    Video
    Format : MPEG-4 Visual
    Format profile : Streaming Video@L1
    Format settings, BVOP : Yes
    Format settings, QPel : No
    Format settings, GMC : No warppoints
    Format settings, Matrix : Default
    Codec ID : XVID
    Codec ID/Hint : XviD
    Duration : 2h 43mn
    Bit rate : 1 023 Kbps
    Width : 640 pixels
    Height : 368 pixels
    Display aspect ratio : 16/9
    Frame rate : 25.000 fps
    Resolution : 24 bits
    Colorimetry : 4:2:0
    Scan type : Progressive
    Bits/(Pixel*Frame) : 0.174
    Stream size : 1.17 GiB (88%)
    Writing library : XviD 1.1.2 (UTC 2006-11-01)
    
    Audio
    Format : MPEG Audio
    Format version : Version 1
    Format profile : Layer 3
    Codec ID : 55
    Codec ID/Hint : MP3
    Duration : 2h 43mn
    Bit rate mode : Constant
    Bit rate : 128 Kbps
    Channel(s) : 2 channels
    Sampling rate : 44.1 KHz
    Resolution : 16 bits
    Stream size : 150 MiB (11%)
    Alignment : Aligned on interleaves
    Interleave, duration : 26 ms (0.65 video frame)
    Interleave, preload duration : 809 ms





    .


    "دور حرم دویده ام صفا و مروه دیده ام هیچ کجا برای من کربُبَلا نمی شود"

    ------------

    تبلیغات در ایران یو اف سی

    کانال تلگرام ایران یو اف سی

    گروه تبادل نظر ایران یو اف سی


نمایش نتایج: از 1 به 1 از 1

اطلاعات موضوع

کاربرانی که در حال مشاهده این موضوع هستند

در حال حاضر 1 کاربر در حال مشاهده این موضوع است. (0 کاربران و 1 مهمان ها)

کاربران برچسب زده شده

کلمات کلیدی این موضوع

علاقه مندي ها (Bookmarks)

مجوز های ارسال و ویرایش

  • شما نمیتوانید موضوع جدیدی ارسال کنید
  • شما امکان ارسال پاسخ را ندارید
  • شما نمیتوانید فایل پیوست کنید.
  • شما نمیتوانید پست های خود را ویرایش کنید
  •